Try Our New BETA Version
GO
(navigation image)
Home Audio Books & Poetry | Community Audio | Computers & Technology | Grateful Dead | Live Music Archive | Music, Arts & Culture | Netlabels | News & Public Affairs | Non-English Audio | Podcasts | Radio Programs | Spirituality & Religion
Search: Advanced Search
Anonymous User (login or join us)
Upload

Listen to audio

item image
Run time: 1:22:29

Stream (help[help])

VBR M3U
MP3 via M3U

Play / Download (help[help])

VBR ZIP

Ogg Vorbis

Lossless zip


All Files: HTTPS Torrent (2/0)

Resources

Bookmark

Jonathan SegelJonathan Segel Live at Pappy & Harriet's Pioneertown Palace (indoor stage) on 2012-09-15 (September 15, 2012)

something has gone horribly wrong 8-p
Prefer flash? · Embed · Questions/Feedback?


Collection: JonathanSegel
Band/Artist: Jonathan Segel
Date: September 15, 2012 (check for other copies)
Venue: Pappy & Harriet's Pioneertown Palace (indoor stage)
Location: Pioneertown CA USA

Source: SBD + AUD mix
Lineage: WAV > FLAC @24/48
Taped by: morst
Transferred by: morst & digitalist0ne
Keywords: 24-bit high resolution version - NOT for CD burning; Live Concert; Pioneertown; Pitown; Pi-Town; Crampout; Campout; Camper Van Beethoven; Cracker; The Ocho; SBD + AUD recording; 24-bit; unsetlistable


Description

1) Erotic Art in Pompeii
2) No Matter How Easy It Is
3) The Vignale Gamine
4) Pottatawela
5) Let's Catch Frogs
6) Bahama Swallow
7) recordist's signout

Notes

Jonathan Segel, Frank Funaro, Victor Krummenacher
Saturday, September 15, 2012
Pioneertown CA USA
Pappy & Harriet's Pioneertown Palace (indoor stage)

8th Annual Cracker/ Camper Van Beethoven family reunion campout

SHNTOOL LEN:
length expanded size cdr WAVE problems fmt ratio filename
22:04.124 381347876 B cxx -- ---xx flac 0.7167 SegelFunaroKrummenacher2012-09-16t01.flac
13:26.361 232232150 B cxx -- ---xx flac 0.7415 SegelFunaroKrummenacher2012-09-16t02.flac
13:07.982 226938908 B cxx -- ---xx flac 0.7507 SegelFunaroKrummenacher2012-09-16t03.flac
20:20.380 351469526 B cxx -- ---xx flac 0.7416 SegelFunaroKrummenacher2012-09-16t04.flac
7:59.738 138164504 B cxx -- ---xx flac 0.6926 SegelFunaroKrummenacher2012-09-16t05.flac
4:37.494 79918298 B cxx -- ---xx flac 0.7473 SegelFunaroKrummenacher2012-09-16t06.flac
0:52.601 15149030 B cxx -- ---xx flac 0.7249 SegelFunaroKrummenacher2012-09-16t07.flac
82:28.680 1425220292 B 0.7318 (7 files)

-~-~-~-~-~-~-~-~-~-~-~-~-~-~-~-~-~-~-~-~-~-~-~-~-~-
The Soundscape Preservation Society (Founded 1991)
http://www.iamtypingwithonefinger.com/SPS.html
-~-~-~-~-~-~-~-~-~-~-~-~-~-~-~-~-~-~-~-~-~-~-~-~-~-

Individual Files

Whole Item FormatSize
[generated M3U] M3U Stream 
[generated VBR MP3 ZIP] VBR MP3 ZIP Stream 
Audio Files 24bit Flac VBR MP3 Ogg Vorbis PNG
Erotic Art in Pompeii 260.6 MB 
31.4 MB 
14.5 MB 
10.6 KB 
No Matter How Easy It Is 164.2 MB 
19.5 MB 
9.1 MB 
10.8 KB 
The Vignale Gamine 162.5 MB 
18.9 MB 
8.8 MB 
10.7 KB 
Pottatawela 248.6 MB 
29.3 MB 
13.5 MB 
10.5 KB 
Let's Catch Frogs 91.3 MB 
11.5 MB 
5.2 MB 
11.9 KB 
Bahama Swallow 57.0 MB 
6.8 MB 
3.1 MB 
10.7 KB 
recordist's signout 10.5 MB 
1.3 MB 
576.2 KB 
10.3 KB 
Image Files JPEG JPEG Thumb
P3420301.JPG 1.4 MB 
5.6 KB 
Information FormatSize
SegelFunaroKrummenacher2012-09-15.ffp Flac FingerPrint 597.0 B 
SegelFunaroKrummenacher2012-09-15.md5 Checksums 600.0 B 
SegelFunaroKrummenacher2012-09-15_files.xml Metadata [file] 
SegelFunaroKrummenacher2012-09-15_meta.xml Metadata 3.7 KB 
SegelFunaroKrummenacher2012-09-15_reviews.xml Metadata 2.3 KB 
Other Files Text Archive BitTorrent
SegelFunaroKrummenacher2012-09-15-info.txt 2.7 KB 
SegelFunaroKrummenacher2012-09-15_archive.torrent 30.5 KB 

Write a review
Downloaded 383 times
Reviews
Average Rating: 5.00 out of 5 stars5.00 out of 5 stars5.00 out of 5 stars5.00 out of 5 stars5.00 out of 5 stars

Reviewer: chill-i - - October 26, 2012
Subject: anti-boring flow
interesting, i find the performance to be all about the dynamics and versatility, it has a beautiful loose spontaneous flow that i find anything but boring.
Reviewer: Emando - - October 26, 2012
Subject: Boring
Sorry, I guess I don't "get it". I like lots of music; instumentals, jams etc... But it's hard to tell one "song" to the next. His jams sound all the same; tons of reverb/delay, tremelo, same guitar sound throughout. Little versatilty or dynamics. You hear one sone, you heard them all...

Regardless, great sound quality. I wont even rate this as to not belittle everyone's enthusiasm. Just wondering why/how so many people like this. Perhaps nostalgia? Hmmmm.
Reviewer: morst - - October 25, 2012
Subject: Would you believe the 15th?
Saturday was the 15th. D'oh!
Reviewer: jonathan segel - 5.00 out of 5 stars5.00 out of 5 stars5.00 out of 5 stars5.00 out of 5 stars5.00 out of 5 stars - October 8, 2012
Subject: film at 11
apparently the full set is on youtube:
http://www.youtube.com/watch?v=swRmLV6gE3k&feature=colike
I had a great time playing here!
Reviewer: digitalist0ne - - September 29, 2012
Subject: I love you too!
listen to the audience chatter at 13:45 in track one... haha. what a great scene, great crowd, great music!

Terms of Use (31 Dec 2014)